• 0 Vote(s) - 0 Average
  • 1
  • 2
  • 3
  • 4
  • 5

Video Encoder Error

Offline
#1 Akamas
Hallo!

Wollte heute mal eine kurze Sequenz in 4K Auflösug für Testzwecke rendern, aber leider bekomme ich immer nur folgende Fehlermeldung:

Quote:Der externe Video Encoder lieferte wurde mit einem Fehler beendet. Bitte prüfen Sie das Log (Info-Menü) für weitere Informationen.

Das Logfile spricht folgendes:

Quote:[2013-12-30 19:10:07] DEBUG: Launching mpeg converter: C:\Program Files (x86)\LRTimelapse 3\ffmpeg.exe
[2013-12-30 19:10:07] DEBUG: Rendering in 4096x2728
[2013-12-30 19:10:07] DEBUG: Launched encoder.
[2013-12-30 19:10:07] DEBUG: Speed 1.0
[2013-12-30 19:10:07] DEBUG: Quality 3
[2013-12-30 19:10:07] DEBUG: Frame rate 25
[2013-12-30 19:10:07] DEBUG: Output cs 420
[2013-12-30 19:10:07] DEBUG: ffmpeg version N-57287-g712eff4 Copyright © 2000-2013 the FFmpeg developers
[2013-12-30 19:10:07] DEBUG: built on Oct 20 2013 19:47:46 with gcc 4.8.2 (GCC)
[2013-12-30 19:10:07] DEBUG: configuration: --enable-gpl --enable-version3 --disable-w32threads --enable-avisynth --enable-bzlib --enable-fontconfig --enable-frei0r --enable-gnutls --enable-iconv --enable-libass --enable-libbluray --enable-libcaca --enable-libfreetype --enable-libgsm --enable-libilbc --enable-libmodplug --enable-libmp3lame --enable-libopencore-amrnb --enable-libopencore-amrwb --enable-libopenjpeg --enable-libopus --enable-librtmp --enable-libschroedinger --enable-libsoxr --enable-libspeex --enable-libtheora --enable-libtwolame --enable-libvidstab --enable-libvo-aacenc --enable-libvo-amrwbenc --enable-libvorbis --enable-libvpx --enable-libwavpack --enable-libx264 --enable-libxavs --enable-libxvid --enable-zlib
[2013-12-30 19:10:07] DEBUG: libavutil 52. 47.101 / 52. 47.101
[2013-12-30 19:10:07] DEBUG: libavcodec 55. 37.102 / 55. 37.102
[2013-12-30 19:10:07] DEBUG: libavformat 55. 19.103 / 55. 19.103
[2013-12-30 19:10:07] DEBUG: libavdevice 55. 4.100 / 55. 4.100
[2013-12-30 19:10:07] DEBUG: libavfilter 3. 88.102 / 3. 88.102
[2013-12-30 19:10:07] DEBUG: libswscale 2. 5.101 / 2. 5.101
[2013-12-30 19:10:07] DEBUG: libswresample 0. 17.104 / 0. 17.104
[2013-12-30 19:10:07] DEBUG: libpostproc 52. 3.100 / 52. 3.100
[2013-12-30 19:10:07] DEBUG: Input #0, image2, from 'C:\Timelapse fotos\LRT_031213\LRT_%05d.jpg':
[2013-12-30 19:10:07] DEBUG: Duration: 00:00:15.36, start: 0.000000, bitrate: N/A
[2013-12-30 19:10:07] DEBUG: Stream #0:0: Video: mjpeg, yuvj444p(pc), 4096x2731, 25 tbr, 25 tbn, 25 tbc
[2013-12-30 19:10:07] DEBUG: [swscaler @ 026a8e40] deprecated pixel format used, make sure you did set range correctly
[2013-12-30 19:10:07] DEBUG: [libx264 @ 0267e000] using cpu capabilities: MMX2 SSE2Fast SSSE3 SSE4.2 AVX
[2013-12-30 19:10:07] DEBUG: [libx264 @ 0267e000] profile High, level 5.1
[2013-12-30 19:10:07] DEBUG: [libx264 @ 0267e000] 264 - core 138 r2358 9e941d1 - H.264/MPEG-4 AVC codec - Copyleft 2003-2013 - http://www.videolan.org/x264.html - options: cabac=1 ref=3 deblock=1:0:0 analyse=0x3:0x113 me=hex subme=7 psy=1 psy_rd=1.00:0.00 mixed_ref=1 me_range=16 chroma_me=1 trellis=1 8x8dct=1 cqm=0 deadzone=21,11 fast_pskip=1 chroma_qp_offset=-2 threads=6 lookahead_threads=1 sliced_threads=0 nr=0 decimate=1 interlaced=0 bluray_compat=0 constrained_intra=0 bframes=3 b_pyramid=2 b_adapt=1 b_bias=0 direct=1 weightb=1 open_gop=0 weightp=2 keyint=250 keyint_min=25 scenecut=40 intra_refresh=0 rc_lookahead=40 rc=crf mbtree=1 crf=10.0 qcomp=0.60 qpmin=0 qpmax=69 qpstep=4 ip_ratio=1.40 aq=1:1.00
[2013-12-30 19:10:07] DEBUG: Output #0, mp4, to 'C:\Users\Akamas\AppData\Local\Temp\LRT_Render_8219384664460131996.mp4':
[2013-12-30 19:10:07] DEBUG: Metadata:
[2013-12-30 19:10:07] DEBUG: creation_time : 2013-12-30T19:10:07
[2013-12-30 19:10:07] DEBUG: encoder : Lavf55.19.103
[2013-12-30 19:10:07] DEBUG: Stream #0:0: Video: h264 (libx264) ([33][0][0][0] / 0x0021), yuv420p, 4096x2304, q=-1--1, 12800 tbn, 25 tbc
[2013-12-30 19:10:07] DEBUG: Stream mapping:
[2013-12-30 19:10:07] DEBUG: Stream #0:0 (mjpeg) -> scale
[2013-12-30 19:10:07] DEBUG: unsharp -> Stream #0:0 (libx264)
[2013-12-30 19:10:07] DEBUG: Press [q] to stop, [?] for help
[2013-12-30 19:10:31] DEBUG: x264 [error]: malloc of size 29709856 failed
[2013-12-30 19:10:31] DEBUG: Video encoding failed
[2013-12-30 19:10:31] ERROR: External encoder exited with error 1
[2013-12-30 19:10:31] INFO: Deleted incomplete file.

Läuft der Speicher über, oder wie ist das zu verstehen?
Danke! Smile
Offline
#2 gwegner
Ja, das ist ein Speicherproblem. Hast Du ein 64bit Betriebssystem? (Leider ist das Log nicht vollständig) - in dem Fall ist auch ein 64bit Java vonnöten und LRTimelapse wird dann auch den Encoder in 64bit starten. Ansonsten wird 4K Rendering schwierig (auf 32bit).
Check out my e-book Time Lapse Shooting and Processing!
Subscribe to the LRTimelapse Newsletter!

lrtimelapse.com - advanced Time Lapse Photography made easy!
gwegner.de - Fotografie, Zeitraffer, Video, Reisen.
facebook · Google+ · twitter · vimeo
Offline
#3 Akamas
hatte tatsächlich ein 32 Bit Java installiert...
leider klappts mit 64bit auch nicht.
System ist 64 bit mit 8GB Ram
bei ungefähr 40 von 380 bildern kommt die Fehlermeldung

Quote:[2013-12-30 20:23:17] DEBUG: Loading properties from C:\Users\Akamas\AppData\Roaming\LRTimelapse\user.props
[2013-12-30 20:23:17] INFO: LRTimelapse 3.2.1 (2013-11-08)
[2013-12-30 20:23:17] INFO: © 2013 Gunther Wegner
[2013-12-30 20:23:17] INFO: http://lrtimelapse.com
[2013-12-30 20:23:17] INFO: Java version: 1.7.0_45 (64bit) from Oracle Corporation
[2013-12-30 20:23:17] INFO: Running on: Windows 7 locale: de_AT
[2013-12-30 20:23:17] INFO: ------------------------------------
[2013-12-30 20:23:19] INFO: Licensed to: xx , Wien - Private License.
[2013-12-30 20:23:19] INFO: Using W7/W8 task bar extensions.
[2013-12-30 20:23:19] DEBUG: Initializing directory chooser.
[2013-12-30 20:23:27] INFO: Done (dirchooser)...
[2013-12-30 20:23:29] DEBUG: Launching ExifTool: C:\Program Files (x86)\LRTimelapse 3\exiftool.exe
[2013-12-30 20:23:30] DEBUG: Exif Tool available.
[2013-12-30 20:23:30] DEBUG: DNG Converter not found.
[2013-12-30 20:23:30] DEBUG: MPEG Encoder available.
[2013-12-30 20:23:30] INFO: Detected Screen size: 1920 x 1080
[2013-12-30 20:23:30] INFO: Newest version: 3.2.1 (2013-11-08), current Version: 3.2.1 (2013-11-08)
[2013-12-30 20:23:44] DEBUG: Loading C:\Timelapse fotos\LRT_031213
[2013-12-30 20:23:44] DEBUG: jpg sequence found.
[2013-12-30 20:23:49] DEBUG: Launching mpeg converter: C:\Program Files (x86)\LRTimelapse 3\ffmpeg.exe
[2013-12-30 20:23:49] DEBUG: Rendering in 4096x2728
[2013-12-30 20:23:50] DEBUG: Launched encoder.
[2013-12-30 20:23:50] DEBUG: Speed 1.0
[2013-12-30 20:23:50] DEBUG: Quality 2
[2013-12-30 20:23:50] DEBUG: Frame rate 25
[2013-12-30 20:23:50] DEBUG: Output cs 420
[2013-12-30 20:23:50] DEBUG: ffmpeg version N-57287-g712eff4 Copyright © 2000-2013 the FFmpeg developers
[2013-12-30 20:23:50] DEBUG: built on Oct 20 2013 19:47:46 with gcc 4.8.2 (GCC)
[2013-12-30 20:23:50] DEBUG: configuration: --enable-gpl --enable-version3 --disable-w32threads --enable-avisynth --enable-bzlib --enable-fontconfig --enable-frei0r --enable-gnutls --enable-iconv --enable-libass --enable-libbluray --enable-libcaca --enable-libfreetype --enable-libgsm --enable-libilbc --enable-libmodplug --enable-libmp3lame --enable-libopencore-amrnb --enable-libopencore-amrwb --enable-libopenjpeg --enable-libopus --enable-librtmp --enable-libschroedinger --enable-libsoxr --enable-libspeex --enable-libtheora --enable-libtwolame --enable-libvidstab --enable-libvo-aacenc --enable-libvo-amrwbenc --enable-libvorbis --enable-libvpx --enable-libwavpack --enable-libx264 --enable-libxavs --enable-libxvid --enable-zlib
[2013-12-30 20:23:50] DEBUG: libavutil 52. 47.101 / 52. 47.101
[2013-12-30 20:23:50] DEBUG: libavcodec 55. 37.102 / 55. 37.102
[2013-12-30 20:23:50] DEBUG: libavformat 55. 19.103 / 55. 19.103
[2013-12-30 20:23:50] DEBUG: libavdevice 55. 4.100 / 55. 4.100
[2013-12-30 20:23:50] DEBUG: libavfilter 3. 88.102 / 3. 88.102
[2013-12-30 20:23:50] DEBUG: libswscale 2. 5.101 / 2. 5.101
[2013-12-30 20:23:50] DEBUG: libswresample 0. 17.104 / 0. 17.104
[2013-12-30 20:23:50] DEBUG: libpostproc 52. 3.100 / 52. 3.100
[2013-12-30 20:23:50] DEBUG: Input #0, image2, from 'C:\Timelapse fotos\LRT_031213\LRT_%05d.jpg':
[2013-12-30 20:23:50] DEBUG: Duration: 00:00:15.36, start: 0.000000, bitrate: N/A
[2013-12-30 20:23:50] DEBUG: Stream #0:0: Video: mjpeg, yuvj444p(pc), 4096x2731, 25 tbr, 25 tbn, 25 tbc
[2013-12-30 20:23:50] DEBUG: [swscaler @ 026aafe0] deprecated pixel format used, make sure you did set range correctly
[2013-12-30 20:23:50] DEBUG: [libx264 @ 0267cdc0] using cpu capabilities: MMX2 SSE2Fast SSSE3 SSE4.2 AVX
[2013-12-30 20:23:50] DEBUG: [libx264 @ 0267cdc0] profile High, level 5.1
[2013-12-30 20:23:50] DEBUG: [libx264 @ 0267cdc0] 264 - core 138 r2358 9e941d1 - H.264/MPEG-4 AVC codec - Copyleft 2003-2013 - http://www.videolan.org/x264.html - options: cabac=1 ref=3 deblock=1:0:0 analyse=0x3:0x113 me=hex subme=7 psy=1 psy_rd=1.00:0.00 mixed_ref=1 me_range=16 chroma_me=1 trellis=1 8x8dct=1 cqm=0 deadzone=21,11 fast_pskip=1 chroma_qp_offset=-2 threads=6 lookahead_threads=1 sliced_threads=0 nr=0 decimate=1 interlaced=0 bluray_compat=0 constrained_intra=0 bframes=3 b_pyramid=2 b_adapt=1 b_bias=0 direct=1 weightb=1 open_gop=0 weightp=2 keyint=250 keyint_min=25 scenecut=40 intra_refresh=0 rc_lookahead=40 rc=crf mbtree=1 crf=16.0 qcomp=0.60 qpmin=0 qpmax=69 qpstep=4 ip_ratio=1.40 aq=1:1.00
[2013-12-30 20:23:50] DEBUG: Output #0, mp4, to 'C:\Users\Akamas\AppData\Local\Temp\LRT_Render_7332417519835667255.mp4':
[2013-12-30 20:23:50] DEBUG: Metadata:
[2013-12-30 20:23:50] DEBUG: creation_time : 2013-12-30T20:23:49
[2013-12-30 20:23:50] DEBUG: encoder : Lavf55.19.103
[2013-12-30 20:23:50] DEBUG: Stream #0:0: Video: h264 (libx264) ([33][0][0][0] / 0x0021), yuv420p, 4096x2304, q=-1--1, 12800 tbn, 25 tbc
[2013-12-30 20:23:50] DEBUG: Stream mapping:
[2013-12-30 20:23:50] DEBUG: Stream #0:0 (mjpeg) -> scale
[2013-12-30 20:23:50] DEBUG: unsharp -> Stream #0:0 (libx264)
[2013-12-30 20:23:50] DEBUG: Press [q] to stop, [?] for help
[2013-12-30 20:24:16] DEBUG: x264 [error]: malloc of size 29709856 failed
[2013-12-30 20:24:16] DEBUG: Video encoding failed
[2013-12-30 20:24:16] ERROR: External encoder exited with error 1
[2013-12-30 20:24:16] INFO: Deleted incomplete file.
Offline
#4 gwegner
Er nutzt noch den 32bit encoder. Ändere mal in den LRTimelapse Einstellungen unter "Externe Werkzeuge" ffmpeg.exe in ffmpeg64.exe um. Danach bitte neustart.
Check out my e-book Time Lapse Shooting and Processing!
Subscribe to the LRTimelapse Newsletter!

lrtimelapse.com - advanced Time Lapse Photography made easy!
gwegner.de - Fotografie, Zeitraffer, Video, Reisen.
facebook · Google+ · twitter · vimeo
Thumbs Up
Offline
#5 Akamas
danke! jetzt klappts! top! Smile
Offline
#6 ChrisGo
Bitte sende bei Problemen den Inhalt dieser Log-Datei an: support@lrtimelapse.com

[2015-04-12 12:30:47] DEBUG: Loading properties from /Users/christiangoedicke/Library/Application Support/LRTimelapse/user.props
[2015-04-12 12:30:47] INFO: LRTimelapse 3.4.1 (2014-08-04)
[2015-04-12 12:30:47] INFO: © 2015 Gunther Wegner
[2015-04-12 12:30:47] INFO: http://lrtimelapse.com
[2015-04-12 12:30:47] INFO: Java version: 1.7.0_51 (64bit) from Oracle Corporation
[2015-04-12 12:30:47] INFO: Running on: Mac OS X locale: de_DE
[2015-04-12 12:30:47] INFO: 64 bit
[2015-04-12 12:30:47] INFO: ------------------------------------
[2015-04-12 12:30:47] INFO: No License Key found. Running LRTimelapse unlicensed for EVALUATION.
[2015-04-12 12:30:49] DEBUG: Initializing directory chooser.
[2015-04-12 12:30:49] INFO: Done (dirchooser)...
[2015-04-12 12:30:50] DEBUG: Launching ExifTool: exiftool
[2015-04-12 12:30:50] INFO: ExifTool: 9.91
{ready}
[2015-04-12 12:30:50] DEBUG: Exif Tool available.
[2015-04-12 12:30:50] DEBUG: DNG Converter not found.
[2015-04-12 12:30:50] DEBUG: MPEG Encoder not found.
[2015-04-12 12:30:50] INFO: Detected Screen size: 1440 x 900
[2015-04-12 12:30:50] INFO: Newest version: 3.4 (2014-06-05), current Version: 3.4.1 (2014-08-04)
[2015-04-12 12:32:13] DEBUG: Loading /Volumes/MY PASSPORT/LRT_LRTSequence
[2015-04-12 12:32:13] DEBUG: jpg sequence found.
[2015-04-12 12:32:15] DEBUG: Launching mpeg converter: ffmpeg
[2015-04-12 12:32:15] DEBUG: Rendering in 1920x1080
[2015-04-12 12:32:15] ERROR: Could not launch encoder
java.io.IOException: Cannot run program "ffmpeg": error=2, No such file or directory
at java.lang.ProcessBuilder.start(ProcessBuilder.java:1041)
at lrtimelapse.v.a(Unknown Source)
at lrtimelapse.v.doInBackground(Unknown Source)
at javax.swing.SwingWorker$1.call(SwingWorker.java:296)
at java.util.concurrent.FutureTask.run(FutureTask.java:262)
at javax.swing.SwingWorker.run(SwingWorker.java:335)
at java.util.concurrent.ThreadPoolExecutor.runWorker(ThreadPoolExecutor.java:1145)
at java.util.concurrent.ThreadPoolExecutor$Worker.run(ThreadPoolExecutor.java:615)
at java.lang.Thread.run(Thread.java:744)
Caused by: java.io.IOException: error=2, No such file or directory
at java.lang.UNIXProcess.forkAndExec(Native Method)
at java.lang.UNIXProcess.<init>(UNIXProcess.java:135)
at java.lang.ProcessImpl.start(ProcessImpl.java:130)
at java.lang.ProcessBuilder.start(ProcessBuilder.java:1022)
... 8 more


Hallo ich habe, glaube ich das selbe Problem aber mit einfach ändern der "ffmpeg" klappt es trotzdem nicht...[/php]
Attached Files
Thumbnail(s)
   
Offline
#7 gwegner
Du hast die LRTimelapse addons nicht installiert, daher findet er den encoder nicht.
Bitte einfach mal die Addons aus dem Installationspaket installieren.
Check out my e-book Time Lapse Shooting and Processing!
Subscribe to the LRTimelapse Newsletter!

lrtimelapse.com - advanced Time Lapse Photography made easy!
gwegner.de - Fotografie, Zeitraffer, Video, Reisen.
facebook · Google+ · twitter · vimeo
Offline
#8 ChrisGo
Ich werd verrückt! Das klappt! DANKE
Video Presets
Nini
2014-03-30, 13:16
Last Post: gwegner

...also check out: