• 1 Vote(s) - 5 Average
  • 1
  • 2
  • 3
  • 4
  • 5

Mac: Render Video error 139

Offline
#11 gwegner
You have a rather old Mac OS, it seems that the latest ffmpeg that LRT4.7.5 includes does not work on your os.
You can reinstall 4.7.5, then download and install the ffmpeg for you OS version as explained in the second post of this thread: https://forum.lrtimelapse.com/Thread-mac...5#pid23235
Check out my e-book Time Lapse Shooting and Processing!
Subscribe to the LRTimelapse Newsletter!

lrtimelapse.com - advanced Time Lapse Photography made easy!
gwegner.de - Fotografie, Zeitraffer, Video, Reisen.
facebook · Google+ · twitter · vimeo
Offline
#12 CFMPHOTO
Hello, I just reinstalled LRTIMELAPSE VERSION 4.7.4 but I do not understand what this message said, I do not know how to solve this problem. Here I copy the message I got from the program....

Support request from Carlos Moreno, Cali, Correo electrónico: cfmphoto@telmex.net.co
Licencia para: LRTimelapse 4, Tipo de licencia: private, Referencia de pago: PayPal, Válida hasta: Perpetua

[2017-03-16 11:37:06] INFO: Log file was created at /Users/CARLOS/Library/Application Support/LRTimelapse/LRTimelapse.log
[2017-03-16 11:37:06] DEBUG: Loading properties from /Users/CARLOS/Library/Application Support/LRTimelapse/user.props
[2017-03-16 11:37:06] INFO: LRTimelapse 4.7.4 (2016-11-26) Build 125
[2017-03-16 11:37:06] INFO: © 2017 Gunther Wegner
[2017-03-16 11:37:06] INFO: http://lrtimelapse.com
[2017-03-16 11:37:06] INFO: Java version: 1.8.0_77 (64bit) from Oracle Corporation
[2017-03-16 11:37:06] INFO: Running on: Mac OS X locale: es_ES
[2017-03-16 11:37:06] INFO: Found 2 processor cores.
[2017-03-16 11:37:06] INFO: Java runtime: 64 bit
[2017-03-16 11:37:06] INFO: ------------------------------------
[2017-03-16 11:37:07] INFO: Licensed to: Carlos Moreno, Cali - Private License.
[2017-03-16 11:37:08] DEBUG: Initializing directory chooser.
[2017-03-16 11:37:08] INFO: Done (dirchooser)...
[2017-03-16 11:37:10] DEBUG: Launching ExifTool: /usr/local/bin/exiftool
[2017-03-16 11:37:10] INFO: ExifTool: 10.31
{ready}
[2017-03-16 11:37:10] DEBUG: Exif Tool available.
[2017-03-16 11:37:10] DEBUG: DNG Converter available.
[2017-03-16 11:37:10] DEBUG: MPEG Encoder available.
[2017-03-16 11:37:10] INFO: Detected 1 screen:
[2017-03-16 11:37:10] INFO: Screen 1: 1920 1200
[2017-03-16 11:37:11] INFO: Latest version: 4.7.5 (2017-02-06), current Version: 4.7.4 (2016-11-26)
[2017-03-16 11:37:54] DEBUG: Loading /Volumes/TRABAJOS/TIME LAPSE AMANECER FEBRERO 17:2017/ARCHIVOS JPG /LRT_TIME_LAPSE_AMANECER_FEBRERO_17:2017
[2017-03-16 11:37:54] DEBUG: jpg sequence found.
[2017-03-16 11:37:54] DEBUG: Dimensions: 3767 x 2119
[2017-03-16 11:38:58] DEBUG: Launching mpeg converter: /usr/local/bin/ffmpeg
[2017-03-16 11:38:58] DEBUG: Writing aspect ratio 16:9 to metadata of video file.
[2017-03-16 11:38:58] DEBUG: Launched encoder.
[2017-03-16 11:38:58] DEBUG:   Speed 1.0
[2017-03-16 11:38:58] DEBUG:   Quality 1
[2017-03-16 11:38:58] DEBUG:   Frame rate 29.97
[2017-03-16 11:38:58] DEBUG:   Output cs 420
[2017-03-16 11:38:58] DEBUG:   Width 1280
[2017-03-16 11:38:58] DEBUG:   Height 720
[2017-03-16 11:38:58] DEBUG: ffmpeg version 3.1.4 Copyright © 2000-2016 the FFmpeg developers
[2017-03-16 11:38:58] DEBUG:   built with llvm-gcc 4.2.1 (LLVM build 2336.11.00)
[2017-03-16 11:38:58] DEBUG:   configuration: --prefix=/Volumes/tempdisk/sw --as=yasm --enable-gpl --enable-version3 --enable-pthreads --disable-ffplay --disable-ffserver --disable-shared --enable-static --enable-libvpx --disable-decoder=libvpx --enable-libmp3lame --enable-libopus --enable-libtheora --enable-libvorbis --enable-libx264 --enable-libx265 --enable-libxvid --enable-zlib --enable-avfilter --enable-fontconfig --enable-libfreetype --enable-libass --enable-libvidstab --enable-filters --enable-postproc --enable-runtime-cpudetect --disable-indev=qtkit --disable-indev=x11grab_xcb
[2017-03-16 11:38:58] DEBUG:   libavutil      55. 28.100 / 55. 28.100
[2017-03-16 11:38:58] DEBUG:   libavcodec     57. 48.101 / 57. 48.101
[2017-03-16 11:38:58] DEBUG:   libavformat    57. 41.100 / 57. 41.100
[2017-03-16 11:38:58] DEBUG:   libavdevice    57.  0.101 / 57.  0.101
[2017-03-16 11:38:58] DEBUG:   libavfilter     6. 47.100 /  6. 47.100
[2017-03-16 11:38:58] DEBUG:   libswscale      4.  1.100 /  4.  1.100
[2017-03-16 11:38:58] DEBUG:   libswresample   2.  1.100 /  2.  1.100
[2017-03-16 11:38:58] DEBUG:   libpostproc    54.  0.100 / 54.  0.100
[2017-03-16 11:38:58] DEBUG: Input #0, image2, from '/Volumes/TRABAJOS/TIME LAPSE AMANECER FEBRERO 17:2017/ARCHIVOS JPG /LRT_TIME_LAPSE_AMANECER_FEBRERO_17:2017/LRT_%05d.jpg':
[2017-03-16 11:38:58] DEBUG:   Duration: 00:00:25.56, start: 0.000000, bitrate: N/A
[2017-03-16 11:38:58] DEBUG:     Stream #0:0: Video: mjpeg, yuvj444p(pc, bt470bg/unknown/unknown), 3767x2119, 25 tbr, 25 tbn, 25 tbc
[2017-03-16 11:38:58] DEBUG: [swscaler @ 0x7fe27b800600] deprecated pixel format used, make sure you did set range correctly
[2017-03-16 11:38:58] DEBUG: [swscaler @ 0x7fe27b049e00] deprecated pixel format used, make sure you did set range correctly
[2017-03-16 11:38:58] DEBUG: [libx264 @ 0x7fe27b009a00] using SAR=1/1
[2017-03-16 11:38:58] DEBUG: [libx264 @ 0x7fe27b009a00] using cpu capabilities: MMX2 SSE2Fast SSSE3 SSE4.1 Cache64
[2017-03-16 11:38:58] DEBUG: [libx264 @ 0x7fe27b009a00] profile High, level 3.1
[2017-03-16 11:38:58] DEBUG: [libx264 @ 0x7fe27b009a00] 264 - core 148 r2721 72d53ab - H.264/MPEG-4 AVC codec - Copyleft 2003-2016 - http://www.videolan.org/x264.html - options: cabac=1 ref=3 deblock=1:0:0 analyse=0x3:0x113 me=hex subme=7 psy=1 psy_rd=1.00:0.00 mixed_ref=1 me_range=16 chroma_me=1 trellis=1 8x8dct=1 cqm=0 deadzone=21,11 fast_pskip=1 chroma_qp_offset=-2 threads=3 lookahead_threads=1 sliced_threads=0 nr=0 decimate=1 interlaced=0 bluray_compat=0 constrained_intra=0 bframes=3 b_pyramid=2 b_adapt=1 b_bias=0 direct=1 weightb=1 open_gop=0 weightp=2 keyint=250 keyint_min=25 scenecut=40 intra_refresh=0 rc_lookahead=40 rc=crf mbtree=1 crf=20.0 qcomp=0.60 qpmin=0 qpmax=69 qpstep=4 ip_ratio=1.40 aq=1:1.00
[2017-03-16 11:38:58] DEBUG: [mp4 @ 0x7fe27b008800] Using AVStream.codec to pass codec parameters to muxers is deprecated, use AVStream.codecpar instead.
[2017-03-16 11:38:58] DEBUG: [mp4 @ 0x7fe27b008800] Failed to parse creation_time "2017-03-16T11:38:58"
[2017-03-16 11:38:58] DEBUG: Output #0, mp4, to '/var/folders/cl/x6d10sqj2jl0rzwqp67dlkw00000gn/T/LRT_Render_1413521574804424679.mp4':
[2017-03-16 11:38:58] DEBUG:   Metadata:
[2017-03-16 11:38:58] DEBUG:     creation_time   : "2017-03-16T11:38:58"
[2017-03-16 11:38:58] DEBUG:     encoder         : Lavf57.41.100
[2017-03-16 11:38:58] DEBUG:     Stream #0:0: Video: h264 (libx264) ([33][0][0][0] / 0x0021), yuvj420p(pc, bt2020c/bt2020/bt2020-10), 1280x720 [SAR 1:1 DAR 16:9], q=-1--1, 29.97 fps, 11988 tbn, 29.97 tbc
[2017-03-16 11:38:58] DEBUG:     Metadata:
[2017-03-16 11:38:58] DEBUG:       encoder         : Lavc57.48.101 libx264
[2017-03-16 11:38:58] DEBUG:     Side data:
[2017-03-16 11:38:58] DEBUG:       cpb: bitrate max/min/avg: 0/0/0 buffer size: 0 vbv_delay: -1
[2017-03-16 11:38:58] DEBUG: Stream mapping:
[2017-03-16 11:38:58] DEBUG:   Stream #0:0 (mjpeg) -> scale
[2017-03-16 11:38:58] DEBUG:   hue -> Stream #0:0 (libx264)
[2017-03-16 11:38:58] DEBUG: Press [q] to stop, [?] for help
[2017-03-16 11:41:33] DEBUG: video:8497kB audio:0kB subtitle:0kB other streams:0kB global headers:0kB muxing overhead: 0.098957%
[2017-03-16 11:41:33] DEBUG: [libx264 @ 0x7fe27b009a00] frame I:3     Avg QP:19.83  size:102038
[2017-03-16 11:41:33] DEBUG: [libx264 @ 0x7fe27b009a00] frame P:163   Avg QP:21.51  size: 38848
[2017-03-16 11:41:33] DEBUG: [libx264 @ 0x7fe27b009a00] frame B:475   Avg QP:24.16  size:  4340
[2017-03-16 11:41:33] DEBUG: [libx264 @ 0x7fe27b009a00] consecutive B-frames:  0.8%  0.3%  2.8% 96.1%
[2017-03-16 11:41:33] DEBUG: [libx264 @ 0x7fe27b009a00] mb I  I16..4:  5.7% 68.2% 26.1%
[2017-03-16 11:41:33] DEBUG: [libx264 @ 0x7fe27b009a00] mb P  I16..4:  0.8%  7.3%  0.7%  P16..4: 47.1% 28.5% 13.1%  0.0%  0.0%    skip: 2.5%
[2017-03-16 11:41:33] DEBUG: [libx264 @ 0x7fe27b009a00] mb B  I16..4:  0.0%  0.0%  0.0%  B16..8: 33.8%  1.6%  0.4%  direct: 4.7%  skip:59.5%  L0:35.1% L1:55.0% BI: 9.9%
[2017-03-16 11:41:33] DEBUG: [libx264 @ 0x7fe27b009a00] 8x8 transform intra:80.8% inter:72.8%
[2017-03-16 11:41:33] DEBUG: [libx264 @ 0x7fe27b009a00] coded y,uvDC,uvAC intra: 77.9% 74.6% 24.1% inter: 24.7% 30.2% 0.5%
[2017-03-16 11:41:33] DEBUG: [libx264 @ 0x7fe27b009a00] i16 v,h,dc,p:  2% 13%  2% 83%
[2017-03-16 11:41:33] DEBUG: [libx264 @ 0x7fe27b009a00] i8 v,h,dc,ddl,ddr,vr,hd,vl,hu:  8% 20% 10%  7% 12%  8% 16%  7% 12%
[2017-03-16 11:41:33] DEBUG: [libx264 @ 0x7fe27b009a00] i4 v,h,dc,ddl,ddr,vr,hd,vl,hu: 11% 25%  9%  7% 12%  8% 13%  6%  9%
[2017-03-16 11:41:33] DEBUG: [libx264 @ 0x7fe27b009a00] i8c dc,h,v,p: 51% 26% 12% 11%
[2017-03-16 11:41:33] DEBUG: [libx264 @ 0x7fe27b009a00] Weighted P-Frames: Y:47.2% UV:11.7%
[2017-03-16 11:41:33] DEBUG: [libx264 @ 0x7fe27b009a00] ref P L0: 49.0% 18.7% 20.5%  9.4%  2.4%
[2017-03-16 11:41:33] DEBUG: [libx264 @ 0x7fe27b009a00] ref B L0: 89.8%  8.9%  1.4%
[2017-03-16 11:41:33] DEBUG: [libx264 @ 0x7fe27b009a00] ref B L1: 97.8%  2.2%
[2017-03-16 11:41:33] DEBUG: [libx264 @ 0x7fe27b009a00] kb/s:3254.18
[2017-03-16 11:41:33] DEBUG: External encoder finished successfully.
[2017-03-16 11:41:33] ERROR: Could not copy temporary file to render directory (/Volumes/TRABAJOS/TIME LAPSE AMANECER FEBRERO 17:2017/ARCHIVOS JPG /TIME_LAPSE_AMANECER_FEBRERO_17:2017_h264-420_720p_29.97_MQ+5.mp4)
[2017-03-16 11:41:33] ERROR: /Volumes/TRABAJOS/TIME LAPSE AMANECER FEBRERO 17:2017/ARCHIVOS JPG /TIME_LAPSE_AMANECER_FEBRERO_17:2017_h264-420_720p_29.97_MQ+5.mp4 (Permission denied)
[2017-03-16 11:41:33] ERROR: The temporary file is still in: /var/folders/cl/x6d10sqj2jl0rzwqp67dlkw00000gn/T/LRT_Render_1413521574804424679.mp4


Thanks fot your attention.

Carlos Moreno
Offline
#13 gwegner
You should always use the latest version - currently it's 4.7.5.

But I guess your error is that you are using a colon (":") in your path name "TIME LAPSE AMANECER FEBRERO 17:2017"

Please rename that to an "_" or similar. I think that it will work then.
Check out my e-book Time Lapse Shooting and Processing!
Subscribe to the LRTimelapse Newsletter!

lrtimelapse.com - advanced Time Lapse Photography made easy!
gwegner.de - Fotografie, Zeitraffer, Video, Reisen.
facebook · Google+ · twitter · vimeo

...also check out: